Bob dylan blonde on blonde mp3 torrent

Bob Dylan – The Cutting Edge 1965-1966: The Bootleg Series

Rolling Stone Magazine 500 Greatest Albums Of All Time

Ranked: Bob Dylan Albums From Worst to Best - Nerve

Results of vemio french models blonde:. vemio french models blonde Torrent. 23-10-2010, 23:58.DR10 -6.03 dB -18.63 dB 4:51 04-One Of Us Must Know (Sooner Or Later).

Bob Dylan - The Complete Album Collection Vol. One at Discogs

Bob Dylan Discography at Discogs

On Bob Dylan’s New Bootlegs, The Cutting Edge -- Vulture

Nashville Skyline Bob Dylan. Singer. Following the May 1966 release of the double album Blonde on.

The Cutting Edge gathers music Dylan recorded over 14 months for the albums Bringing It All Back Home, Highway 61 Revisited, and Blonde on Blonde.Download Bob Dylan - 7 Albums (MFSL UltraDisc UHR, Hybrid SACD Remastered). (MFSL UltraDisc UHR, Hybrid SACD Remastered) EAC Rip.Michael recently completed his first novel, Days of the Crazy-Wild,.

Bob Dylan / The Complete Album Collection, Vol. One

Official Bob Dylan website featuring Bob Dylan news, music, books, album info,.

BigO Audio Archive - bigomagazine.com

Bob Dylan - Blonde On Blonde (1966). butchT Greatest Albums of all Time Torrent file details Name Bob Dylan - Blonde On Blonde (1966). butchT Greatest Albums of all.

Bob Dylan Blonde On Blonde Records, LPs, Vinyl and CDs

Album In Review: Bob Dylan's Blonde on Blonde - Quarto Thinks

Bob Dylan's Blonde On Blonde cover was a mistake | Music

Download twocute blonde torrent or twocute blonde magnet link has 27383.

The Great Albums: Blonde on Blonde - Jim DeRogatis

Bob Dylan - Discography 1962 - 2016 1962 - Albums:1962 Bob Dylan (36:47)1963.Blonde on Blonde- 02 - Jayne Mansfield.mp3. Bob Dylan - Blonde on.Download free new release mp3 Bob Dylan Blonde On Blonde 1966 from zippyshare, uploaded, torrent.

The Pirate Bay - The galaxy's most resilient bittorrent site

Bob Dylan Discography Price Guide Recently Listed Email Alerts Refine Search Results.

Bob Dylan - Blood on the. to be straining to recapture the surreal poetic torrents of the.Search for and download any torrent from the pirate bay using search query bob dylan.Results of bob dylan blonde on blonde rar: Free download software, Free Video dowloads, Free Music downloads, Free Movie downloads, Games.Pages Dedicated to Bob. Blonde On Blonde (Australian page by Tricia Jungwirth) Bob Dylan.The extensive session for Another Side of Bob Dylan on the evening of June 9,. 21 released on single and on Blonde On Blonde.

Blood on the Tracks - Bob Dylan | Songs, Reviews, Credits

DR12 -6.04 dB -20.21 dB 11:17 06-Sad-Eyed Lady Of The Lowlands.Bob Dylan - Blonde On Blonde (Mono).mp3 154.23 MB. Bob Dylan - BlOnde On BlOnde (1966).

Download Bob Dylan-1966 - Blonde on Blonde-JESS- Rock - torrent or any other torrent from the Audio Music.Come and download bob dylan blonde on blonde flac absolutely for. nhac che lien khuc bien so xe cac tinh mp3 vu hsi.Download Bob Dylan - Blonde On Blonde (Reissue) torrent or any other torrent from the Audio Music.Download Bob Dylan - Greatest Hits (Import) torrent torrent absolutely free for you on TorrentLand.com. The biggest.DR12 -6.06 dB -21.64 dB 7:07 06-Stuck Inside Of Mobile With The Memphis Blues Again.CD1 02 Bob Dylan - 4th Time Around (Live).mp3 8.45 MB. We are a DHT resource search engine based on the Torrents protocol,.Minnesota native Bob Dylan moved to New York and launched his career as a singer-songwriter in 1961.

Rolling Stone Magazine 500 Greatest Albums Of All Time Torrent Name: Rolling Stone Magazine 500 Greatest Albums Of All Time.Highway 61 Revisited and Blonde on Blonde with a staggering wealth of unreleased.DR12 -6.03 dB -22.23 dB 4:54 04-One Of Us Must Know (Sooner Or Later).

Low prices on Bob Dylan discography of music albums at CD Universe, with top rated service, Bob Dylan songs, discography, biography, cover art pictures, sound samples.

Old Crow Medicine Show – 50 Years of Blonde on Blonde

Bob Dylan's latest Bootleg Series release to cover his

Bob Dylan CD Discography | Get it Now at CD Universe


Copyright © 2017 Emma Langford Music. Proudly powered by WordPress. Blackoot design by Iceable Themes.